Skip to main content

Dopapod Live at Stone Church on 2012-12-07

by Dopapod



Set 1:

01 intro
02 French Bowling
03 New James
04 Bubblebrain
05 We Are Not Alone >
06 Nuggy Jawson
07 Weird Charlie Part 2 >
08 Trapper Keeper

Set 2:

01 intro
02 Weird Charlie Part I
03 Vol. 3 #86 >
04 Bats In The Cave >
05 Carol of the Bells >
06 Psycho Nature
07 Onion Head >
08 Indian Grits
09 crowd

Encore #1:
10 Sonic
11 crowd

Encore #2:
12 Eight Years Ended


Collection Dopapod
Band/Artist Dopapod
Venue Stone Church
Location Newmarket, NH

Source Schoeps MK4>KC5>CMC6>Sonosax SX-R4(24bit/96khz) & Soundboard>R-4
Lineage WAV>USB>Macbook Pro>Audacity(mixing)>Wave Editor(tracking,fades,resample(izotope)/dither(mbit+)to 16 bit/44.1k)>XAct(FLAC 8,ffp,fix sbe)
Taped by Andy Murray
Transferred by Andy Murray

Notes

Dopapod
2012-12-07
Stone Church
Newmarket, NH

Recorded and transferred by Andy Murray

Mics were 20' from stage DFC (21cm,110 degrees)

Schoeps MK4>KC5>CMC6>Sonosax SX-R4(24bit/96khz) & Soundboard>SX-R4

WAV>USB>Macbook Pro>Audacity(mixing)>Wave Editor(tracking,fades,resample(izotope)/dither(mbit+)to 16 bit/44.1k)>XAct(FLAC 8,ffp,fix sbe)

Big thanks to Luke Stratton for the SB feed

2 Sets

length expanded size cdr WAVE problems fmt ratio filename
5:14.60 55530764 B --- -- ----- wav 1.0000 dopapod2012-12-07_mk4sbmix_1644_d1t01.wav
9:33.26 101138396 B --- -- ----- wav 1.0000 dopapod2012-12-07_mk4sbmix_1644_d1t02.wav
11:37.10 122974364 B --- -- ----- wav 1.0000 dopapod2012-12-07_mk4sbmix_1644_d1t03.wav
10:01.22 106068188 B --- -- ----- wav 1.0000 dopapod2012-12-07_mk4sbmix_1644_d1t04.wav
7:41.47 81430988 B --- -- ----- wav 1.0000 dopapod2012-12-07_mk4sbmix_1644_d1t05.wav
11:00.31 116496956 B --- -- ----- wav 1.0000 dopapod2012-12-07_mk4sbmix_1644_d1t06.wav
3:43.19 39381932 B --- -- ----- wav 1.0000 dopapod2012-12-07_mk4sbmix_1644_d1t07.wav
10:14.05 108321404 B --- -- ----- wav 1.0000 dopapod2012-12-07_mk4sbmix_1644_d1t08.wav
0:49.45 8749484 B --- -- ----- wav 1.0000 dopapod2012-12-07_mk4sbmix_1644_d2t01.wav
11:07.56 117790556 B --- -- ----- wav 1.0000 dopapod2012-12-07_mk4sbmix_1644_d2t02.wav
13:50.74 146586092 B --- -- ----- wav 1.0000 dopapod2012-12-07_mk4sbmix_1644_d2t03.wav
9:25.68 99825980 B --- -- ----- wav 1.0000 dopapod2012-12-07_mk4sbmix_1644_d2t04.wav
2:42.28 28642700 B --- -- ----- wav 1.0000 dopapod2012-12-07_mk4sbmix_1644_d2t05.wav
11:45.58 124498460 B --- -- ----- wav 1.0000 dopapod2012-12-07_mk4sbmix_1644_d2t06.wav
11:42.22 123884588 B --- -- ----- wav 1.0000 dopapod2012-12-07_mk4sbmix_1644_d2t07.wav
9:34.41 101350076 B --- -- ----- wav 1.0000 dopapod2012-12-07_mk4sbmix_1644_d2t08.wav
1:14.32 13128908 B --- -- ----- wav 1.0000 dopapod2012-12-07_mk4sbmix_1644_d2t09.wav
10:35.62 112159868 B --- -- ----- wav 1.0000 dopapod2012-12-07_mk4sbmix_1644_d2t10.wav
1:02.47 11047388 B --- -- ----- wav 1.0000 dopapod2012-12-07_mk4sbmix_1644_d2t11.wav
9:27.14 100051772 B --- -- ----- wav 1.0000 dopapod2012-12-07_mk4sbmix_1644_d2t12.wav
162:25.17 1719058864 B 1.0000 (20 files)

Reviews

There are no reviews yet. Be the first one to write a review.
DOWNLOAD OPTIONS
In Collection
Dopapod
In Collection
Live Music Archive
Uploaded by
andyjah
on 12/8/2012
Views
61
PEOPLE ALSO FOUND
Dopapod
by Dopapod
34
0
0
Source: Schoeps MK4>KC5>CMC6>Sonosax SX-R4(24bit/96khz)
Dopapod
by Dopapod
59
0
0
Source: Schoeps MK41>KC5>CMC6>Sonosax SX-M2>Apogee Mini-me(aes out,24bit/96khz)>COAX>Edirol R-44
Dopapod
by Dopapod
332
0
1
( 1 reviews )
Source: Schoeps MK41/MK22>KC5>CMC6>Sonosax SX-R4(24bit/96khz) & SB>SX-R4
Dopapod
by Dopapod
40
0
0
Source: Schoeps MK41>KC5>CMC6>Sonosax SX-R4(24bit/96khz)
Dopapod
by Dopapod
226
0
0
Source: Schoeps MK41>KC5>CMC6>Sonosax SX-M2>Apogee Mini-me(aes out,24bit/96khz)>COAX>Edirol R-44+Soundboard feed>R-44
Dopapod
by Dopapod
97
0
0
Source: Schoeps MK4/MK22>Sonosax SX-R4 & SB>SX-R4
Dopapod
96
0
0
Source: Schoeps MK41>KC5>CMC6>Sonosax SX-M2>Apogee Mini-me(aes out,24bit/96khz)>COAX>Edirol R-44
Dopapod
by Dopapod
41
0
0
Source: Schoeps MK4>KC5>CMC6>Sonosax SX-R4(24bit/96khz)
Dopapod
by Dopapod
173
0
0
Source: Schoeps MK22>KC5>CMC6>Sonosax SX-M2>Apogee Mini-me(aes out,24bit/96khz)>COAX>Edirol R-44
Dopapod
by Dopapod
194
0
0
Source: Schoeps MK22>KC5>CMC6>Sonosax SX-M2>Apogee Mini-me(aes out @24bit/96khz)>Edirol R-44